» » Мертвым повезло

Мертвым повезло

Мертвым повезло (2017) cкачать торрент и смотреть бесплатно

Производство: Россия
Режиссер: Вадим Валиуллин
В ролях: Дмитрий Богдан, Алексей Дербунович, Андрей Поведский, Валерий Гриньков, Александрина Баландина, Антон Болдырев, Полина Шабаева, Тамара Адамова, Владислав Арсланов, Николай Рихтер, Григорий Николаев, Вячеслав Крупнов, Владимир Шитов, Алексей Смышляев
Жанр: Ужасы, Комедии
Премьера в России: 2 ноября 2017
Возраст: 0+
Продолжительность: 89 мин. / 01:29
Рейтинги:
6.510(64)
5.608(1041)


Описание фильма "Мертвым повезло"

Молодой парень оказывается втянутым в криминальную банду, в которой состоит его старший брат. Парень вынужден пойти на свое первое «настоящее дело» вместе с матерыми уголовниками, чтобы доказать свою профпригодность.Перед бандой стоит задача выполнить заказное убийство и обставить все дело, как очередной всплеск активности серийного маньяка, который уже несколько месяцев держит в страхе весь город. Но на деле банда уголовников сталкивается с настоящим маньяком, который внимательно наблюдал за убийцами-подражателями, и его не устроило качество их работы. Теперь маньяк открывает охоту на убийц, чтобы показать ценой их жизней, как работает настоящий профи.

Скачать Мертвым повезло через торрент

Вниманию правообладателей! Просьба претензии к контенту отправлять на почтовый ящик [email protected]
Сиды Качество Перевод Размер Видео Аудио
Скачать Загрузка... WEB-DL Русский 777,84 Мб MPEG-4 AVC, 784x328, ~ 1086 Кбит/с AAC-HE, 2 ch, ~ 76 Кбит/сMIОбщее Уникальный идентификатор : 247249951881905945235314544020367852697 (0xBA029BCDB7F593D78823467A7EABC499) Полное имя : D:MOVIESMertvym_povezlo.2017.ExKinoRay.mkv Формат : Matroska Версия формата : Version 4 / Version 2 Размер файла : 742 Мбайт Продолжительность : 1 ч. 29 м. Общий поток : 1158 Кбит/сек Дата кодирования : UTC 2018-05-06 15:11:53 Программа кодирования : mkvmerge v15.0.0 ('Duel with the Devil') 64-bit Библиотека кодирования : libebml v1.3.5 + libmatroska v1.4.5 Видео Идентификатор : 1 Формат : AVC Формат/Информация : Advanced Video Codec Профиль формата : [email protected] Параметр CABAC формата : Да Параметр RefFrames формата : 10 кадров Идентификатор кодека : V_MPEG4/ISO/AVC Продолжительность : 1 ч. 29 м. Битрейт : 1086 Кбит/сек Ширина : 784 пикселя Высота : 328 пикселей Соотношение сторон : 2,40:1 Режим частоты кадров : Постоянный Частота кадров : 25,000 кадров/сек Цветовое пространство : YUV Субдискретизация насыщенности : 4:2:0 Битовая глубина : 8 бит Тип развёртки : Прогрессивная Бит/(Пиксели*Кадры) : 0.169 Размер потока : 692 Мбайт (93%) Библиотека кодирования : x264 core 152 r2851 ba24899 Настройки программы : cabac=1 / ref=10 / deblock=1:-3:-3 / analyse=0x3:0x133 / me=umh / subme=11 / psy=1 / psy_rd=1.00:0.15 / mixed_ref=1 / me_range=32 / chroma_me=1 / trellis=2 / 8x8dct=1 / cqm=0 / deadzone=21,11 / fast_pskip=0 / chroma_qp_offset=-3 / threads=6 / lookahead_threads=1 / sliced_threads=0 / nr=0 / decimate=0 / interlaced=0 / bluray_compat=0 / constrained_intra=0 / bframes=10 / b_pyramid=2 / b_adapt=2 / b_bias=0 / direct=3 / weightb=1 / open_gop=0 / weightp=2 / keyint=250 / keyint_min=24 / scenecut=40 / intra_refresh=0 / rc_lookahead=40 / rc=2pass / mbtree=0 / bitrate=1086 / ratetol=1.0 / qcomp=0.60 / qpmin=0 / qpmax=69 / qpstep=4 / cplxblur=20.0 / qblur=0.5 / vbv_maxrate=50000 / vbv_bufsize=62500 / nal_hrd=none / filler=0 / ip_ratio=1.40 / pb_ratio=1.30 / aq=1:1.00 Default : Да Forced : Нет Аудио Идентификатор : 2 Формат : AAC Формат/Информация : Advanced Audio Codec Профиль формата : HE-AAC / LC Идентификатор кодека : A_AAC Продолжительность : 1 ч. 29 м. Битрейт : 76,0 Кбит/сек Каналы : 2 канала Расположение каналов : Front: L R Частота : 48,0 КГц / 24,0 КГц Частота кадров : 23,438 кадра/сек (1024 SPF) Метод сжатия : С потерями Задержка видео : 31 мс. Размер потока : 48,7 Мбайт (7%) Default : Да Forced : Нет Меню 00:00:00.000 : en:Глава 1 00:07:22.920 : en:Глава 2 00:14:29.120 : en:Глава 3 00:21:44.520 : en:Глава 4 00:29:11.600 : en:Глава 5 00:36:39.440 : en:Глава 6 00:43:40.440 : en:Глава 7 00:50:50.280 : en:Глава 8 00:57:55.600 : en:Глава 9 01:05:19.440 : en:Глава 10 01:12:33.000 : en:Глава 11 01:19:43.400 : en:Глава 12 Скриншоты
Скачать Загрузка... WEB-DL Русский 1,57 Гб 720x304 (2.37:1), 25 fps, XviD build 50 ~1940 kbps avg, 0.35 bit/pixel 48 kHz, AC3 Dolby Digital, 3/2 (L,C,R,l,r) + LFE ch, ~384 kbps

У нас вы можете легко скачать Мертвым повезло через торрент бесплатно в хорошем качестве, оставляйте комментарии и делитесь впечатлениями!


А вот тут ещё интересные фильмы, которые вы может быть не смотрели:



Добавить комментарий

Ваше имя

Комментарий

Все рекомендуемые нами программы доступны на странице Скачать. На сайте Кино как То всегда все новые фильмы, доступные к скачиванию через торрент.

Кино как то Контакты:
Адрес: Гаражный пр. 13 105275 Москва,