.
» » Отважный рыцарь

Отважный рыцарь (2015) cкачать торрент и смотреть бесплатно

Оригинальное название: Der kleine Ritter Trenk
Производство: Германия, Австрия
Режиссер: Энтони Пауэр
В ролях: Георг Зольцер, Аксель Праль, Йоханес Цайлер, Дэнис Лайонс
Жанр: Приключения, Семейные, Мультфильмы
Мировая премьера: 16 октября 2015
Премьера в России: 19 января 2017
Возраст: 6+
Продолжительность: 75 мин. / 01:15
Рейтинги:
5.710(124)
5.692(366)


Описание фильма "Отважный рыцарь"

Настоящий рыцарь должен быть мужественным, смелым, отважным, каким угодно, но главные составляющие успешной героической карьеры  дама сердца и немножечко препятствий, чтобы завоевывать было интереснее. А там уже и замок, и полкоролевства, и слава под фанфары  все как всегда. Вперед  навстречу приключениям, чтобы успеть позавтракать кашей и не забыть меч

Скачать Отважный рыцарь через торрент

Вниманию правообладателей! Просьба претензии к контенту отправлять на почтовый ящик [email protected]
Сиды Качество Перевод Размер Видео Аудио
Скачать Загрузка... WEB-DL Профессиональный (полное дублирование) [Официальный звук] 782,92 Мб MPEG-4 AVC, 736x400, ~ 1233 Кбит/с AAC-LC, 2 ch, ~72 Кбит/сMIОбщее Уникальный идентификатор : 233194455518489931942002987433769756580 (0xAF6F9E545D8A44499774685A6B7AE7A4) Полное имя : D:MOVIESOtvazhnyj.rycar.2O15.D.BDRIp.1O8Op.mkv-muxed.mkv Формат : Matroska Версия формата : Version 2 Размер файла : 747 Мбайт Продолжительность : 1 ч. 19 м. Общий поток : 1307 Кбит/сек Дата кодирования : UTC 2017-08-25 22:30:29 Программа кодирования : mkvmerge v15.0.0 ('Duel with the Devil') 64-bit Библиотека кодирования : libebml v1.3.5 + libmatroska v1.4.5 Видео Идентификатор : 1 Формат : AVC Формат/Информация : Advanced Video Codec Профиль формата : [email protected] Параметр CABAC формата : Да Параметр RefFrames формата : 9 кадров Идентификатор кодека : V_MPEG4/ISO/AVC Продолжительность : 1 ч. 19 м. Битрейт : 1233 Кбит/сек Ширина : 736 пикселей Высота : 400 пикселей Соотношение сторон : 1,85:1 Режим частоты кадров : Постоянный Частота кадров : 24,000 кадра/сек Цветовое пространство : YUV Субдискретизация насыщенности : 4:2:0 Битовая глубина : 8 бит Тип развёртки : Прогрессивная Бит/(Пиксели*Кадры) : 0.175 Размер потока : 704 Мбайт (94%) Библиотека кодирования : x264 core 152 r2851kMod ba24899 Настройки программы : cabac=1 / ref=9 / deblock=1:-2:-2 / analyse=0x3:0x113 / me=umh / subme=9 / psy=1 / fade_compensate=0.00 / psy_rd=1.00:0.20 / mixed_ref=1 / me_range=32 / chroma_me=1 / trellis=1 / 8x8dct=1 / cqm=0 / deadzone=21,11 / fast_pskip=1 / chroma_qp_offset=-3 / threads=6 / lookahead_threads=1 / sliced_threads=0 / nr=0 / decimate=0 / interlaced=0 / bluray_compat=0 / constrained_intra=0 / bframes=9 / b_pyramid=2 / b_adapt=2 / b_bias=0 / direct=3 / weightb=1 / open_gop=0 / weightp=2 / keyint=240 / keyint_min=23 / scenecut=40 / intra_refresh=0 / rc_lookahead=40 / rc=2pass / mbtree=1 / bitrate=1233 / ratetol=1.0 / qcomp=0.60 / qpmin=0 / qpmax=69 / qpstep=4 / cplxblur=20.0 / qblur=0.5 / vbv_maxrate=50000 / vbv_bufsize=62500 / nal_hrd=none / filler=0 / ip_ratio=1.40 / aq=3:1.00 Default : Да Forced : Нет Аудио Идентификатор : 2 Формат : AAC Формат/Информация : Advanced Audio Codec Профиль формата : LC Идентификатор кодека : A_AAC Продолжительность : 1 ч. 19 м. Битрейт : 72,0 Кбит/сек Каналы : 2 канала Расположение каналов : Front: L R Частота : 48,0 КГц Частота кадров : 46,875 кадров/сек (1024 SPF) Метод сжатия : С потерями Задержка видео : 9 мс. Размер потока : 41,1 Мбайт (6%) Язык : Russian Default : Да Forced : Нет Скриншоты
Скачать Загрузка... WEB-DL Профессиональный (полное дублирование) 1,56 Гб XviD, 1759 Кбит/сек, 720x384 Русский: AC3, 384 Кбит/сек (6 ch), Немецкий: AC3, 448 Кбит/сек (6 ch)

У нас вы можете легко скачать Отважный рыцарь через торрент бесплатно в хорошем качестве, оставляйте комментарии и делитесь впечатлениями!



Добавить комментарий

Ваше имя

Комментарий

Все рекомендуемые нами программы доступны на странице Скачать. На сайте Кино как То всегда все новые фильмы, доступные к скачиванию через торрент.

Рекомендуем скачать фильмы через торрент

Кино как то Контакты:
Адрес: Гаражный пр. 13 105275 Москва,