» » Крикуны 2: Охота

Крикуны 2: Охота

Крикуны 2: Охота (2008) cкачать торрент и смотреть бесплатно

Оригинальное название: Screamers: The Hunting
Производство: Канада
Режиссер: Шелдон Уилсон
В ролях: Джина Холден, Яна Палласке, Лэнс Хенриксен, Грег Брайк, Кристофер Редман, Тим Розон, Дэйв Лапоммерей, Джоди Ричардсон, Стивен Амелл, Холли О’Брайэн, Дэррил Хопкинс, Стивен Луш, Стивен Данн, Justin Madol, Сара Смолл, Линли Холл, Шон Джонстон, Рут Лоуренс, Эдвард Куинлэн
Жанр: Ужасы, Фантастика, Боевики, Триллеры
Мировая премьера: 17 февраля 2009
Возраст: 16+
Продолжительность: 95 мин. / 01:35
Рейтинги:
4.710(4995)
4.159(2599)


Описание фильма "Крикуны 2: Охота"

Спасательная команда с Земли, получив сигнал SOS, прибывает на планету Сириус 6-Б, считавшуюся безжизненной после уничтожения «крикунов». Исследователи во главе с лейтенантом Викторией Бронте быстро находят несколько выживших на отдаленном аванпосте, но что еще важнее, они обнаруживают, что развитие роботов достигло ужасающих высот, позволяющих им крайне убедительно принимать человеческий облик, а значит, до отбытия домой предстоит еще немало неприятных переживаний и буйства паранойи.

Скачать Крикуны 2: Охота через торрент

Вниманию правообладателей! Просьба претензии к контенту отправлять на почтовый ящик [email protected]
Сиды Качество Перевод Размер Видео Аудио
Скачать Загрузка... BDRip1080 Многоголосый закадровый 3,89 Гб 1280x720 (16:9), 4566 kbps, 23.976 fps Русский (AC3, 6 ch, 448 Кбит/с) Оригинал (AC-3, 6ch, 448 Кбит/с)
Скачать Загрузка... BDRip1080 Многоголосый закадровый 8,53 Гб 1920x1080, 11105 Kbps, 23.976fps AC3, 6 ch, 448 kbps, CBR - Английский
Скачать Загрузка... WEB-DL Профессиональный (многоголосый закадровый) 780,81 Мб MPEG-4 AVC, 752x424, ~ 1022 Кбит/с AAC-LC, 2 ch, ~ 76 Кбит/сMIОбщее Уникальный идентификатор : 238100695932729535352320829353166098884 (0xB32086A86F9966F2A828F64B0FDBD1C4) Полное имя : D:MOVIESKrikuny-2.Ohota.2009.ExKinoRay.mkv Формат : Matroska Версия формата : Version 2 Размер файла : 745 Мбайт Продолжительность : 1 ч. 34 м. Общий поток : 1097 Кбит/сек Дата кодирования : UTC 2017-12-02 22:48:00 Программа кодирования : mkvmerge v18.0.0 ('Apricity') 64-bit Библиотека кодирования : libebml v1.3.5 + libmatroska v1.4.8 Видео Идентификатор : 1 Формат : AVC Формат/Информация : Advanced Video Codec Профиль формата : [email protected] Параметр CABAC формата : Да Параметр RefFrames формата : 10 кадров Идентификатор кодека : V_MPEG4/ISO/AVC Продолжительность : 1 ч. 34 м. Битрейт : 1022 Кбит/сек Ширина : 752 пикселя Высота : 424 пикселя Соотношение сторон : 16:9 Режим частоты кадров : Постоянный Частота кадров : 23,976 (24000/1001) кадра/сек Цветовое пространство : YUV Субдискретизация насыщенности : 4:2:0 Битовая глубина : 8 бит Тип развёртки : Прогрессивная Бит/(Пиксели*Кадры) : 0.134 Размер потока : 692 Мбайт (93%) Библиотека кодирования : x264 core 152 r2851kMod ba24899 Настройки программы : cabac=1 / ref=10 / deblock=1:-3:-3 / analyse=0x3:0x133 / me=umh / subme=11 / psy=1 / fade_compensate=0.00 / psy_rd=1.00:0.05 / mixed_ref=1 / me_range=32 / chroma_me=1 / trellis=2 / 8x8dct=1 / cqm=0 / deadzone=21,11 / fast_pskip=0 / chroma_qp_offset=-3 / threads=6 / lookahead_threads=1 / sliced_threads=0 / nr=0 / decimate=0 / interlaced=0 / bluray_compat=0 / constrained_intra=0 / bframes=10 / b_pyramid=2 / b_adapt=2 / b_bias=0 / direct=3 / weightb=1 / open_gop=0 / weightp=2 / keyint=240 / keyint_min=23 / scenecut=40 / intra_refresh=0 / rc_lookahead=40 / rc=2pass / mbtree=1 / bitrate=1022 / ratetol=1.0 / qcomp=0.60 / qpmin=0 / qpmax=69 / qpstep=4 / cplxblur=20.0 / qblur=0.5 / vbv_maxrate=50000 / vbv_bufsize=62500 / nal_hrd=none / filler=0 / ip_ratio=1.40 / aq=3:1.00 Default : Да Forced : Нет Аудио Идентификатор : 2 Формат : AAC Формат/Информация : Advanced Audio Codec Профиль формата : LC Идентификатор кодека : A_AAC Продолжительность : 1 ч. 34 м. Битрейт : 76,0 Кбит/сек Каналы : 2 канала Расположение каналов : Front: L R Частота : 48,0 КГц Частота кадров : 46,875 кадров/сек (1024 SPF) Метод сжатия : С потерями Задержка видео : 9 мс. Размер потока : 51,6 Мбайт (7%) Язык : Russian Default : Да Forced : Нет Скриншоты

У нас вы можете легко скачать Крикуны 2: Охота через торрент бесплатно в хорошем качестве, оставляйте комментарии и делитесь впечатлениями!


А вот тут ещё интересные фильмы, которые вы может быть не смотрели:



Добавить комментарий

Ваше имя

Комментарий

Все рекомендуемые нами программы доступны на странице Скачать. На сайте Кино как То всегда все новые фильмы, доступные к скачиванию через торрент.

Кино как то Контакты:
Адрес: Гаражный пр. 13 105275 Москва,