.
» » Не отступать и не сдаваться

Не отступать и не сдаваться (1986) cкачать торрент или смотреть онлайн

Оригинальное название: No Retreat, No Surrender
Производство: США, Гонконг
Режиссер: Кори Юэнь
В ролях: Курт МакКинни, Жан-Клод Ван Дамм, Дж.В. У., Кэти Сайлено, Таи Чунг Ким, Кент Липэм, Рон Понел, Дэйл Джейкоби, Питер Каннингэм, Тимоти Д. Бэйкер
Жанр: Боевики, Драма, Криминальные
Мировая премьера: 2 мая 1986
Возраст: 6+
Продолжительность: 85 мин. / 01:25
Рейтинги:
5.610(13273)
6.74(5120)

Трейлер к фильму
Смотреть сейчас!

Описание фильма "Не отступать и не сдаваться"

Парнишка, изучающий восточные единоборства и мечтающий стать чемпионом, бесстрашно вступает в борьбу с уголовниками и шпаной и зарабатывает сперва лишь синяки и насмешки окружающих.

Но в награду за проявленную силу духа, настойчивость и упорную работу на тренировках до седьмого пота, ему начинает покровительствовать и обучать его всем секретам мастерства дух самого Брюса Ли. И, сразившись в большом турнире с грозным русским противником, молодой американский кикбоксер сенсационно, вопреки ожиданиям зрителей и прогнозам специалистов, побеждает.

Скачать Не отступать и не сдаваться через торрент

Вниманию правообладателей! Просьба претензии к контенту отправлять на почтовый ящик [email protected]
Сиды Качество Перевод Размер Видео Аудио
Скачать Загрузка... BDRemux Авторский (одноголосый закадровый) |Гаврилов, Андрей Юрьевич со вставками перевода Немахова, Юрия Геннадьевича| 21,52 Гб MPEG-4 AVC Video / 22994 kbps / 1080p / 23.976 fps / 16:9 / High Profile 4.1 English DTS-HD MA 2.0 48 kHz 2104 kbps 24-bit (DTS Core: 2.0 / 48 kHz / 1509 kbps / 24-bit) |original|
Скачать Загрузка... WEB-DL Профессиональный (двухголосый закадровый) НТВ+ 782,62 Мб MPEG-4 AVC, 752x408, ~ 978 Кбит/с AAC-LC, 2 ch, ~ 76 Кбит/сMIОбщее Уникальный идентификатор : 199988734714490805260058152562600595845 (0x96746DE4D065745B9ED7A57E5D465185) Полное имя : D:MOVIESNe.otstupat.i.ne.sdavatsja.1986.ExKinoRay.mkv Формат : Matroska Версия формата : Version 4 / Version 2 Размер файла : 746 Мбайт Продолжительность : 1 ч. 38 м. Общий поток : 1056 Кбит/сек Дата кодирования : UTC 2017-12-18 18:47:25 Программа кодирования : mkvmerge v15.0.0 ('Duel with the Devil') 64-bit Библиотека кодирования : libebml v1.3.5 + libmatroska v1.4.5 Видео Идентификатор : 1 Формат : AVC Формат/Информация : Advanced Video Codec Профиль формата : [email protected] Параметр CABAC формата : Да Параметр RefFrames формата : 10 кадров Идентификатор кодека : V_MPEG4/ISO/AVC Продолжительность : 1 ч. 38 м. Битрейт : 978 Кбит/сек Ширина : 752 пикселя Высота : 408 пикселей Соотношение сторон : 1,85:1 Режим частоты кадров : Постоянный Частота кадров : 24,000 кадра/сек Цветовое пространство : YUV Субдискретизация насыщенности : 4:2:0 Битовая глубина : 8 бит Тип развёртки : Прогрессивная Бит/(Пиксели*Кадры) : 0.133 Размер потока : 691 Мбайт (93%) Библиотека кодирования : x264 core 152 r2851kMod ba24899 Настройки программы : cabac=1 / ref=10 / deblock=1:-3:-2 / analyse=0x3:0x133 / me=umh / subme=11 / psy=1 / fade_compensate=0.00 / psy_rd=1.05:0.20 / mixed_ref=1 / me_range=32 / chroma_me=1 / trellis=2 / 8x8dct=1 / cqm=0 / deadzone=21,11 / fast_pskip=0 / chroma_qp_offset=-3 / threads=6 / lookahead_threads=1 / sliced_threads=0 / nr=0 / decimate=0 / interlaced=0 / bluray_compat=0 / constrained_intra=0 / bframes=10 / b_pyramid=2 / b_adapt=2 / b_bias=0 / direct=3 / weightb=1 / open_gop=0 / weightp=2 / keyint=240 / keyint_min=23 / scenecut=40 / intra_refresh=0 / rc_lookahead=40 / rc=2pass / mbtree=1 / bitrate=978 / ratetol=1.0 / qcomp=0.60 / qpmin=0 / qpmax=69 / qpstep=4 / cplxblur=20.0 / qblur=0.5 / vbv_maxrate=50000 / vbv_bufsize=62500 / nal_hrd=none / filler=0 / ip_ratio=1.40 / aq=3:1.00 Default : Да Forced : Нет Аудио Идентификатор : 2 Формат : AAC Формат/Информация : Advanced Audio Codec Профиль формата : LC Идентификатор кодека : A_AAC Продолжительность : 1 ч. 38 м. Битрейт : 76,0 Кбит/сек Каналы : 2 канала Расположение каналов : Front: L R Частота : 48,0 КГц Частота кадров : 46,875 кадров/сек (1024 SPF) Метод сжатия : С потерями Задержка видео : 9 мс. Размер потока : 53,5 Мбайт (7%) Язык : Russian Default : Да Forced : Нет Меню 00:00:00.000 : :Chapter 1 00:07:20.083 : :Chapter 2 00:14:00.791 : :Chapter 3 00:21:07.958 : :Chapter 4 00:27:46.625 : :Chapter 5 00:38:08.500 : :Chapter 6 00:48:40.708 : :Chapter 7 00:57:06.958 : :Chapter 8 01:06:52.166 : :Chapter 9 01:15:10.333 : :Chapter 10 01:21:42.708 : :Chapter 11 01:27:54.666 : :Chapter 12 01:36:40.833 : :Chapter 13 01:38:48.166 : :Chapter 14 Скриншоты

У нас вы можете легко скачать Не отступать и не сдаваться через торрент бесплатно в хорошем качестве, оставляйте комментарии и делитесь впечатлениями!



Добавить комментарий

Ваше имя

Комментарий

Все рекомендуемые нами программы доступны на странице Скачать. На сайте Кино как То всегда все новые фильмы, доступные к скачиванию через торрент.

Рекомендуем скачать фильмы через торрент

Кино как то Контакты:
Адрес: Гаражный пр. 13 105275 Москва,